#TITLE:Laser Cannon Deth Sentence by young editer;
#ARTIST:Dethklok;
#FILE:04 Laser Cannon Deth Sentence.mp3;
#BPM:40.000;
#GAP:4974;
#SAMPLESTART:99.920;
#SAMPLELENGTH:12.000;
#CDTITLE:Nepex-Chart.bmp;
#FREEZE:1412.000=375.000;
#CHANGEBPM:4.000=160.000,772.000=80.000,784.000=160.000,792.000=80.000,804.000=160.000,940.000=80.000,1004.000=160.000,2432.000=159.900,2632.000=40.000;
#SINGLE:MANIAC:13:
[000000628482628428628284]
[242482848268248286828682]
[682868286848286284828424]
[626862848284246262686286]
[848262426286848268242628]
[628684828424626862868284]
[828424246268286286828482]
[626824282482626828642462]
[868482682426286462682428]
[286286828482682828628482]
[682426242624824282428482]
[842628626862828424626862]
[828424828424628682428682]
[682428642868248284626864]
[248284626828642482682864]
[626864248464648284628684]
`A!A00000000000000000000000A00000000000000000000000<8!8B!B>00000000000<8B>000A000000000000000700000000000000030000000000000009000000000000000B000000000000000<8!81!1>0000000<81>00000007000000000000000B000000000000000'
`30000000000000009000000000000000B000000000000000<8!83!3>00000000000<83>000A000000000000000700000000000000030000000000000009000000000000000B000000000000000<6!61!1>0000000<61>00000007000000000000000A000000000000000'
[703010<8!83!3><83>10B03090B0<8!81!1><81>9030]
[70A030<8!8B!B><8B>1070A0B0A0<6!61!1><61>A030]
[90B010<8!83!3><83>B010703090<8!81!1><81>B010]
[7030A0<6!61!1><61>90A0703010<8!83!3><83>10A0]
[7030A0<8!8B!B><8B>103090B070<8!81!1><81>3070]
[B01070<8!83!3><83>7030106080B02080]
[304020928262846268286424]
[828482686282848262686282]
[842462686282842462848284]
[282482428482626862642482]
[842628628684826284826286]
[848268286428686286828284]
[848262686286842462686284]
[246268628684282482828482]
[682862868482428242848284]
[262862868482626828626424]
[828462628684826268242824]
[828428682468242864286286]
[848262642482846284286848]
[626424828462686482826862]
[686284828462868284246268]
[628424626864248284286282]
[7!70070010307030B010A0B030]
[9070A0762642482848268282]
[B02080B07030B010A0703090]
[B070A0826828628482642862]
`7!70000000000000000000000000000000000070000000000030000000000000007000000000000000B000000000000000100000000000000030000000000000009000000000000000B0000000000000001000000000000000A000000000000000'
[B07030762686424828424828]
[462800B0103090B0A0703090]
[B010A0402080604020608020]
`4000000000000000600000000000000080000000000000002000000080000000600080004!4000000000000000400000008000000060000000400080002!2000000000000000200000004000000080000000400060008!800000000000000080000000'
`B0000000000000003000000000000000A000000000000000B00000000000000010000000000000007000000000000000<83>000000040000000600020008!8000000000000000800000002000000060000000400020006!600000000000000060000000'
`8000000040000000800060002!200000000000000020000000B000000000000000A0000000000000001000000000000000900000000000000070000000000000003000000000000000<83>00000000000000040000000000000002000000040000000'
[8!80A0802060462!20A020602042]
[8!80A080B0A0109030A0<61>08046]
[2!2030208020682!20A060208042]
[6!603080B0A070B01090<81>06024]
[8!8070802060462!203020608062]
[8!807020B0A03010A090<61>08062]
[8!8070802060284!407020602042]
`8!8000000000000000A00000000000000080000000000000001000000000000000A000000000000000B000000000000000A00000000000000070000000000000003000000000000000<8!83!3>00000000000<83>00000000000<8!81!1>00000000000<81>00000000000'
(<6!61!1><61><8!81!1><81><8!83!3><83><6!61!1><61><8!8B!B><8B><8!81!1><81><8!83!3><83><6!61!1><61>)
`<8!8B!B>00000000000<8B>00000000000<8!83!3>00000000000<83>00000000000<8!81!1>00000000000<81>00000000000<83>00000004000800020000000600000008000600020000000800000002000000060000000<81>00000000000000000000000<83>00000000000000000000000'
[<81>62<8B>00<83>00<61>00<83>48<61>84<83>00<81>00]
`<8B>00000002000000060000000<81>00000000000000000000000<8B>00000008000400020000000800000006000200080000000400000008000200060000000B0000000A000000090000000100000000000000060000000000000002000000040000000'
[8!80A0802060462!20A020602042]
[8!80A080B0A0109030A0<61>08046]
[2!2030208020682!20A060208042]
[6!603080B0A070B01090<81>06024]
[8!8070802060462!203020608062]
[8!807020B0A03010A090<61>08062]
[8!8070802060284!407020604642]
[8!80A08010A0B0A07030<8!81!1><81>6020]
[804020B02080604020804080]
[206080108060208040<8!8B!B><8B>2060]
[204020902080408020602040]
[208040902060208060<8!83!3><83>4020]
[602080B08040806020806080]
[402060A04080204020<8!81!1><81>4080]
[204020904080206080208060]
[208060702060208060<8!8B!B><8B>2060]
[402040902060806040204080]
[208040308060402080<6!61!1><61>8020]
[406080108060208060804080]
[206020904020408020<8!83!3><83>4080]
[206020B08060206040204080]
[208040902060806020<8!81!1><81>6080]
[108020602080B08020608020]
[706020806080308060703070]
[1090A0B030A01090A0703090]
[10B0A0300000628262846268]
[286424828482686282848262]
[686282842462686282842462]
[848284282482428482626862]
[642482842628628684826284]
[826286848268286428686286]
[828284848262686286842462]
[686284246268628684282482]
[8284826828007090A01090B0]
[A070309010B0A68482626828]
[626424900000B09010307010]
[A0B01090A010B82468242864]
[286286A000009030A070B070]
[901070A09010928462686482]
[826862686200907030A01090]
[30B0A0B07010308620406080]
[402080604020628482628428]
[628284242482848268248286]
[828682682868286848286284]
[828424626862848284246262]
[686286848262426286848268]
[242628628684828424626862]
[868284828424246268286286]
[828482626824282482626828]
[642462868482682426286462]
[682428286286828482682828]
[628482682426242624824282]
[428482842628626862828424]
[626862828424828424628682]
[428682682428642868248284]
[626864248284626828642482]
[682864626864208640804820]
[602860408020482628482682]
[482826868628262842862824]
[282428428242824262824826]
[282686484248262826864848]
[424824262848684824262842]
[868482482426282686484248]
[242826282686864842824824]
[282628484286828628484282]
[468648242628428684824648]
[428682824824282628428282]
[482628428684868486286828]
[682628268482484248282686]
[484248282686282686482428]
[682428428682468242862826]
[484246862826484282468628]
[428246484246862646462826]
[482426A!A00A0010307030B010]
[A0B0309070A0762642482848]
[268282862842B07030B010A0]
[703090B070A0826828628482]
[6428628464843070B0103090]
[B010A0B07030762686424828]
[42482846268610307030B010]
[A0B0309070A0762642482848]
[268284862842B07030B010A0]
[703090B070A0726828628482]
[64286284628610307030B010]
[A0B0309070A0762642482848]
[268282862842<8!8B!B><8B>7030B010A0]
[<8!81!1><81>309010B030<8!83!3><83>B01070A070]
[<8!8B!B><8B>3090B01070<8!81!1><81>B03090B010]
[A0B030907030<8!83!3><83>10B03090B0]
[307010309030<8!81!1><81>A07030B010]
[<6!61!1><61>3090A070A0<8!8B!B><8B>3090B010A0]
[<8!81!1><81>3090701030<8!8B!B><8B>A070B010A0]
[70309010A070<8!8B!B><8B>B010901070]
[90703090B010<8!81!1><81>3090B01070]
[<8!83!3><83>B010A0B070<8!81!1><81>3090B01070]
[<6!61!1><61>90B0A07030<8!83!3><83>B010703090]
[10703090B010<8!8B!B><8B>A03090B010]
[A0B010A07030<8!81!1><81>B01090A030]
[<8!83!3><83>B010A03090<8!8B!B><8B>1070A0B030]
[<8!83!3><83>B01070A0B0<6!61!1><61>9010703090]
[7010A0B070A0348268286424]
[828482686284<8!83!3>00000000000]
00000000
<83>0000000
;
#SINGLE:SMANIAC:13:
[000000928482928428B28284]
[A42482948268348286728682]
[B82868186848386284928424]
[926862948284A46262B86286]
[A48262726286A48268342628]
[B28684928424926862768284]
[928424A46268186286728482]
[926824382482926828342462]
[768482B82426186462B82428]
[186286728482B82828B28482]
[B82426A42624924282B28482]
[942628B26862728424926862]
[728424928424928682B28682]
[B82428342868348284926864]
[348284926828342482B82864]
[926864348464348284928684]
`A!A00000000000000000000000A00000000000000000000000<8!8B!B>00000000000<8B>000A000000000000000700000000000000030000000000000009000000000000000B000000000000000<8!81!1>0000000<81>00000007000000000000000B000000000000000'
`30000000000000009000000000000000B000000000000000<8!83!3>00000000000<83>000A000000000000000700000000000000030000000000000009000000000000000B000000000000000<6!61!1>0000000<61>00000007000000000000000A000000000000000'
[703010<8!83!3><83>10B03090B0<8!81!1><81>9030]
[70A030<8!8B!B><8B>1070A0B0A0<6!61!1><61>A030]
[90B010<8!83!3><83>B010703090<8!81!1><81>B010]
[7030A0<6!61!1><61>90A0703010<8!83!3><83>10A0]
[7030A0<8!8B!B><8B>103090B070<8!81!1><81>3070]
[B01070<8!83!3><83>7030106080B02080]
[304020928262946268186424]
[928482B86282948262B86282]
[942462B86282942462948284]
[382482728482B26862942482]
[942628B28684926284926286]
[A48268186428B86286728284]
[948262B86286A42462B86284]
[A46268B28684382482928482]
[B82862768482B28242948284]
[A62862768482B26828B26424]
[928462B28684926268342824]
[928428B82468342864386286]
[A48262942482946284386848]
[B26424928462B86482726862]
[B86284928462768284A46268]
[B28424926864348284386282]
[7!70070010307030B010A0B030]
[9070A0762642B82848168282]
[B02080B07030B010A0703090]
[B070A0726828B28482942862]
`7!70000000000000000000000000000000000070000000000030000000000000007000000000000000B000000000000000100000000000000030000000000000009000000000000000B0000000000000001000000000000000A000000000000000'
[B07030762686724828B24828]
[162800B0103090B0A0703090]
[B010A0402080604020608020]
`4000000000000000600000000000000080000000000000002000000080000000600080004!4000000000000000400000008000000060000000400080002!2000000000000000200000004000000080000000400060008!800000000000000080000000'
`B0000000000000003000000000000000A000000000000000B00000000000000010000000000000007000000000000000<83>000000040000000600020008!8000000000000000800000002000000060000000400020006!600000000000000060000000'
`8000000040000000800060002!200000000000000020000000B000000000000000A0000000000000001000000000000000900000000000000070000000000000003000000000000000<83>00000000000000040000000000000002000000040000000'
[9!80A0802060461!20A020602042]
[9!80A080B0A0109030A0<61>08046]
[A!2030208020681!20A060208042]
[9!603080B0A070B01090<81>06024]
[9!807080206046A!203020608062]
[7!807020B0A03010A090<61>08062]
[9!807080206028B!407020602042]
`7!8000000000000000A00000000000000080000000000000001000000000000000A000000000000000B000000000000000A00000000000000070000000000000003000000000000000<8!83!3>00000000000<83>00000000000<8!81!1>00000000000<81>00000000000'
(<6!61!1><61><8!81!1><81><8!83!3><83><6!61!1><61><8!8B!B><8B><8!81!1><81><8!83!3><83><6!61!1><61>)
`<8!8B!B>00000000000<8B>00000000000<8!83!3>00000000000<83>00000000000<8!81!1>00000000000<81>00000000000<83>00000004000800020000000600000008000600020000000800000002000000060000000<81>00000000000000000000000<83>00000000000000000000000'
[<81>62<8B>00<83>00<61>00<83>48<61>84<83>00<81>00]
`<8B>00000002000000060000000<81>00000000000000000000000<8B>00000008000400020000000800000006000200080000000400000008000200060000000B0000000A000000090000000100000000000000060000000000000002000000040000000'
[9!80A0802060461!20A020602042]
[9!80A080B0A0109030A0<61>08046]
[1!2030208020681!20A060208042]
[9!603080B0A070B01090<81>06024]
[9!807080206046A!203020608062]
[7!807020B0A03010A090<61>08062]
[9!8070802060281!407020604642]
[8!80A08010A0B0A07030<8!81!1><81>6020]
[804020B02080604020804080]
[206080108060208040<8!8B!B><8B>2060]
[204020902080408020602040]
[208040902060208060<8!83!3><83>4020]
[602080B08040806020806080]
[402060A04080204020<8!81!1><81>4080]
[204020904080206080208060]
[20806070A0B010A090<8!8B!B><8B>2060]
[402040902060806040204080]
[208040308060402080<6!61!1><61>8020]
[406080108060208060804080]
[206020904020408020<8!83!3><83>4080]
[206020B08060206040204080]
[208040902060806020<8!81!1><81>6080]
[108020602080B08020608020]
[706020806080308060703070]
[1090A0B030A01090A0703090]
[10B0A0300000B28262946268]
[186424928482B86282948262]
[B86282942462B86282942462]
[948284382482728482926862]
[942482942628B28684926284]
[926286A48268386428386286]
[728284A48262B86286A42462]
[B86284A46268B28684382482]
[928482B828007090A01090B0]
[A070309010B0A68482B26828]
[B26424900000B09010307010]
[A0B01090A010B82468342864]
[386286A000009030A070B070]
[901070A09010928462B86482]
[726862B86200907030A01090]
[30B0A0B07010308620406080]
[402080604020928482928428]
[B28284A42482948268348286]
[728682B82868386848186284]
[928424926862948284A46262]
[B86286A48262726286A48268]
[342628B28684928424926862]
[768284928424A46268386286]
[728482926824382482926828]
[342462768482B82426186462]
[B82428186286728482B82828]
[B28482B82426A42624924282]
[B28482942628B26862928424]
[926862728424928424928682]
[728682B82428342868348284]
[926864348284926828342482]
[B82864926864308640804820]
[602860408020182628182682]
[B82826A68628162842762824]
[382428B28242924262924826]
[182686184248162826A64848]
[B24824A62848384824A62842]
[768482B82426182686184248]
[342826182686A64842924824]
[382628184286728628B84282]
[768648342628B28684924648]
[B28682924824382628B28282]
[B82628B28684A68486186828]
[382628168482B84248182686]
[184248382686182686182428]
[382428B28682768242762826]
[184246A62826184282768628]
[B28246184246A62646162826]
[182426A!A00A0010307030B010]
[A0B0309070A0762642B82848]
[168282762842B07030B010A0]
[703090B070A0726828B28482]
[9428629464843070B0103090]
[B010A0B07030762686724828]
[B2482816268610307030B010]
[A0B0309070A0762642B82848]
[168284A62842B07030B010A0]
[703090B070A0726828B28482]
[94286294628610307030B010]
[A0B0309070A0762642B82848]
[168282762842<8!8B!B><8B>7030B010A0]
[<8!81!1><81>309010B030<8!83!3><83>B01070A070]
[<8!8B!B><8B>3090B01070<8!81!1><81>B03090B010]
[A0B030907030<8!83!3><83>10B03090B0]
[307010309030<8!81!1><81>A07030B010]
[<6!61!1><61>3090A070A0<8!8B!B><8B>3090B010A0]
[<8!81!1><81>3090701030<8!8B!B><8B>A070B010A0]
[70309010A070<8!8B!B><8B>B010901070]
[90703090B010<8!81!1><81>3090B01070]
[<8!83!3><83>B010A0B070<8!81!1><81>3090B01070]
[<6!61!1><61>90B0A07030<8!83!3><83>B010703090]
[10703090B010<8!8B!B><8B>A03090B010]
[A0B010A07030<8!81!1><81>B01090A030]
[<8!83!3><83>B010A03090<8!8B!B><8B>1070A0B030]
[<8!83!3><83>B01070A0B0<6!61!1><61>9010703090]
[7010A0B070A0348268286424]
[828482686284<8!83!3>00000000000]
00000000
<83>0000000
;
#SINGLE:ANOTHER:10:
[000000408080206060802020]
[408080204040208080206060]
[806060208080402020408080]
[204040208080204040206020]
[4!400040802020804040806060]
[208080208080206060802020]
[408080206060402020408080]
[204040208080206060802060]
[4!400040206060408080206060]
[802020408080206060802020]
[804040806060804040806060]
[208080206060204040208060]
[2!200020406060806060208080]
[206060804040806060208080]
[402020408080206060804040]
[802020806060208080402060]
[A!A00A0070A0703090B0A070B0]
[3090B030A0703090B03070A0]
[7030109010B03090B0109030]
[70A030B01070A0B0A0B0A030]
[90B01090B01070309070B010]
[7030A0B090A07030109010A0]
[7030A0B0103090B070A03070]
[B01070307030106080B02080]
[304020406060208080402020]
[406060208080402020408080]
[206060806060208080206060]
[802020408080208080402020]
[408080204040206060802020]
[806060804040806060208080]
[206060804040806060204040]
[208080206060208080206060]
[802020804040806060804040]
[806060802020806060402020]
[408080206060406060208080]
[402020408080204040208080]
[206060804040806060802020]
[806060208080408080206060]
[804040806060208080406060]
[208080406060208080206060]
[7!70070010307030B010A0B030]
[90A0B0104040404040404060]
[802040307030B010A0703090]
[B070A0608020406080402080]
`B!B0000000000000000000000000000000600040000000000030000000000000007000000000000000B000000000000000100000000000000030000000000000009000000000000000B0000000000000001000000000000000A000000000000000'
[B070A0306060606060606040]
[20806070103090B0A0703090]
[B010A0402080604020608020]
`4000000000000000600000000000000080000000000000002000000080000000600080004!4000000000004000000000008000000060000000400080002!2000000000000000200000004000000080000000400060008!800000000000000080000000'
`B0000000000000003000000000000000A000000000000000B00000000000000010000000000000007000000000000000<83>000000040000000600020008!8000000000000000800000002000000060000000400020006!600000000000000060000000'
`8000000040000000800060002!200000000000000020000000B000000000000000A0000000000000001000000000000000900000000000000070000000000000003000000000000000<83>00000000000000040000000000000002000000040000000'
[8!80A0802060462!20A020602042]
[8!80A080B0A0109030A0<61>08046]
[2!2030208020682!20A060208042]
[6!603080B0A070B01090106024]
[8!8070802060462!203020608062]
[8!807020B0A03010A090108062]
[8!8070802060284!407020602042]
`8!8000000000000000A00000000000000080000000000000001000000000000000A000000000000000B000000000000000A00000000000000070000000000000003000000000000000<8!83!3>00000000000<83>00000000000<8!81!1>00000000000<81>00000000000'
(<6!61!1><61><8!81!1><81><8!83!3><83><6!61!1><61><8!8B!B><8B><8!81!1><81><8!83!3><83><6!61!1><61>)
`<8!8B!B>00000000000<8B>00000000000<8!83!3>00000000000<83>00000000000<8!81!1>00000000000<81>00000000000<83>00000004000800020000000600000008000600020000000800000002000000060000000<81>00000000000000000000000<83>00000000000000000000000'
[<81>62<8B>00<83>00<61>00<83>48<61>84<83>00<81>00]
`<8B>00000002000000060000000<81>00000000000000000000000<8B>00000008000400020000000800000006000200080000000400000008000200060000000B0000000A000000090000000100000000000000060000000000000002000000040000000'
[8!80A0802060462!20A020602042]
[8!80A080B0A0109030A0108046]
[2!2030208020682!20A060208042]
[6!603080B0A070B01090106024]
[8!8070802060462!203020608062]
[8!807020B0A03010A090<61>08062]
[8!8070802060284!407020604642]
[8!80A08010A0B0A07030<8!81!1><81>6020]
[804020B02080604020804080]
[206080108060208040<8!8B!B><8B>2060]
[204020902080408020602040]
[208040902060208060<8!83!3><83>4020]
[602080B08040806020806080]
[402060A04080204020<8!81!1><81>4080]
[204020904080206080208060]
[208060702060208060<8!8B!B><8B>2060]
[402040902060806040204080]
[208040308060402080<6!61!1><61>8020]
[406080108060208060804080]
[206020904020408020<8!83!3><83>4080]
[206020B08060206040204080]
[208040902060806020<8!81!1><81>6080]
[108020602080B08020608020]
[706020806080308060703070]
[1090A0B030A01090A0703090]
[10B0A0300000408080206060]
[802020408080204040208080]
[206060806060208080402020]
[408080204040208080204040]
[2060204!400040802020804040]
[806060208080208080206060]
[802020408080206060402020]
[408080204040208080206060]
[8020604!4000407090A01090B0]
[A070309010B0A08080808080]
[808020402080B09010307010]
[A0B01090A010B02080604020]
[6080207!7000709030A070B070]
[901070A09070102020202020]
[608020402080307030A01090]
[30B0A0B07010308620406080]
[402080604020406060208080]
[402020406060208080402020]
[408080206060806060208080]
[206060802020408080208080]
[402020408080204040206060]
[802020806060804040806060]
[208080206060804040806060]
[204040208080206060208080]
[206060802020804040806060]
[804040806060802020806060]
[402020408080206060406060]
[208080402020408080204040]
[208080206060804040806060]
[802020806060208080408080]
[206060804040806060208080]
[406060408080206480208420]
[8028604080204!402080206080]
[608!84A08!8048602!2082406!608620]
[4!4084602!2082208!804060204020]
[6048208!8068402!208060408040]
[6080604082608!802040602060]
[4028604!4024806!6026402!208260]
[8!8028604!4024806!604080204020]
[8046802!2062408!804020602040]
[6020406028604!406020806020]
[8064802!2042608!8028406!608640]
[2!2082608!8048204!406020806080]
[2064206!6046802!208040608060]
[4080406082406!604080204020]
[8026804!4064206!6086402!204260]
[8!8068204!4084602!208060408040]
`6000000000000000800000002000000060000000000000008!8000000000000000200000000000000040008000000000006000000000008000000000002!200000000000000000000000000000000000000000000000000000000000000000000000'
[00000000020010307030B010]
[A0B0309070A0104040404040]
[608020402080B07030B010A0]
[703090B070A0B02080604020]
[60802040608010A0701030A0]
[B0A070A0B030708080808080]
[608020402080B0A09010A090]
[1030A010A070308020406080]
[4020806040209010B0A0B090]
[10A090A0B090104040404040]
[608020402080307030A070A0]
[30B030A01030B08020406080]
[4020806040207!7730A0703090]
[1!11A030107090A!AAB0301090B0]
[3!33A09010A030B!BBA070A0B070]
[309070A090B0A!AA10709030B0]
[90A0307030901!11A090109070]
[A!AAB0309010B0A!AAB030A070A0]
[1!1190B03070A09!99A070B010A0]
[70309010A0709!99B010901070]
[90703090B010A!AA3090B01070]
[9!99B010A0B0701!113090B01070]
[3!3390B0A070309!99B010703090]
[10703090B0109!99A03090B010]
[A0B010A070307!77B01090A030]
[9!99B010A030907!771070A0B030]
[9!99B01070A0B01!119010703090]
[7010A0B070A0348268286424]
[828482686284<8!83!3>00000000000]
00000000
<83>0000000
;
#SINGLE:BASIC:9:
[000000408080206060802020]
[408080204040208080206060]
[806060208080402020408080]
[204040208080204040206020]
[4!400040802020804040806060]
[208080208080206060802020]
[408080206060402020408080]
[204040208080206060802060]
[4!400040206060408080206060]
[802020408080206060802020]
[804040806060804040806060]
[208080206060204040208060]
[2!200020406060806060208080]
[206060804040806060208080]
[402020408080206060804040]
[802020806060208080402060]
[A!A00A00808080808080808080]
[808080808080808080608020]
[402080606060606060606060]
[606060606040208060802040]
[608020404040404040404040]
[404040404040404040408020]
[402080606060606060606060]
[606060606040208060802040]
[608020406060208080402020]
[406060208080402020408080]
[206060806060208080206060]
[802020408080208080402020]
[408080204040206060802020]
[806060804040806060208080]
[206060804040806060204040]
[208080206060208080206060]
[802020804040806060804040]
[806060802020806060402020]
[408080206060406060208080]
[402020408080204040208080]
[206060804040806060802020]
[806060208080408080206060]
[804040806060208080406060]
[208080406060208080206060]
[7!700700404040404040404040]
[404040404040404040404080]
[204020808080808080808080]
[808080608020406080402080]
`B!B00000000000000000000000000000006000400000000000600000000000000060000000000000006000000000000000600000000000000060000000000000006000000000000000600000000000000060000000000000006000000000000000'
[606060606060606060606040]
[208060202020202020202020]
[202020402080604020608020]
`4000000000000000600000000000000080000000000000002000000080000000600080004!4000000000000000400000008000000060000000400080002!2000000000000000200000004000000080000000400060008!800000000000000080000000'
`2000000000000000200000000000000020000000000000002000000000000000200000000000000020000000000000002000000040000000600020008!8000000000000000800000002000000060000000400020006!600000000000000060000000'
`8000000040000000800060002!200000000000000020000000600000000000000060000000000000006000000000000000600000000000000060000000000000006000000000000000800000000000000040000000000000002000000040000000'
[8!8080002060462!202000602042]
[8!808000202020202020802046]
[2!2020008020682!202000208042]
[6!606000202020202020206024]
[8!8080002060462!202000608062]
[8!808000404040404040408062]
[8!8080002060284!404000602042]
`8!8000000000000000800000000000000000000000000000002000000000000000200000000000000020000000000000002000000000000000200000000000000020000000000000009!900000000000900000000000A!A00000000000A00000000000'
(1!117!773!33B!BB7!771!119!99B!BB)
`7!700000000000700000000000A!A00000000000A000000000007!700000000000700000000000A00000004000800020000000600000008000600020000000800000002000000060000000100000000000000000000000900000000000000000000000'
[A62700900100A48184300A00]
`700000002000000060000000A00000000000000000000000100000008000400020000000800000006000200080000000400000008000200060000000B0000000A000000090000000100000000000000060000000000000002000000040000000'
[8!8080002060462!202000602042]
[8!808000808080808080802046]
[2!2020008020682!202000208042]
[6!606000202020202020206024]
[8!8080002060462!202000608062]
[8!808000606060606060608062]
[8!8080002060284!404000608042]
[8!808000404040404040A!AA6020]
[804020B02080604020804080]
[206080108060208040<8!8B!B><8B>2060]
[204020902080408020602040]
[208040902060208060<8!83!3><83>4020]
[602080B08040806020806080]
[402060A04080204020<8!81!1><81>4080]
[204020904080206080208060]
[208060702060208060<8!8B!B><8B>2060]
[402040902060806040204080]
[208040308060402080<6!61!1><61>8020]
[406080108060208060804080]
[206020904020408020<8!83!3><83>4080]
[206020B08060206040204080]
[208040902060806020<8!81!1><81>6080]
[108020602080B08020608020]
[706020806080308060402040]
[608060408040608060208020]
[604060A00000408080206060]
[802020408080204040208080]
[206060806060208080402020]
[408080204040208080204040]
[2060204!400040802020804040]
[806060208080208080206060]
[802020408080206060402020]
[408080204040208080206060]
[8020604!400040808080808080]
[808080808080808080808080]
[808020402080202020202020]
[202020202020402080604020]
[6080207!700070202020202020]
[202020202020202020202020]
[608020402080606060606060]
[606060606060608620406080]
[402080604020406060208080]
[402020406060208080402020]
[408080206060806060208080]
[206060802020408080208080]
[402020408080204040206060]
[802020806060804040806060]
[208080206060804040806060]
[204040208080206060208080]
[206060802020804040806060]
[804040806060802020806060]
[402020408080206060406060]
[208080402020408080204040]
[208080206060804040806060]
[802020806060208080408080]
[206060804040806060208080]
[406060408080206480208420]
[8028604080204!400000000000]
048!882!226!66
4!442!228!8000
088!882!2000
00028!8000
084!446!662!22
8!884!446!6000
062!228!8000
00084!4000
042!228!886!66
2!228!884!4000
046!662!2000
00026!6000
064!446!662!22
8!884!442!2000
(00208!8008682!200000)
[000000000200404040404040]
[404040404040404040404040]
[608020402080606060606060]
[606060606060402080604020]
[608020408020808080808080]
[808080808080808080808080]
[608020402080202020202020]
[202020202020608020406080]
[4020806040207!804040404840]
[B!6040404046401!204040404240]
[6!6080204026803!206060606060]
[6060606062606!608020402080]
[4020802046207!804040404840]
[B!6040404046401!204040404240]
[6!6080204026803!206060606060]
[6060606062604!402080608020]
[6080206084209!608080808680]
[A!2080808082807!408080808480]
[6!6080204026801!402020202020]
[2020202024206!608020402080]
[4020802046207!804040404840]
[B!6040404046401!204040404240]
[6!6080204026803!206060606060]
[6060606062607!802040604020]
[604020406820B!604040404640]
[7!8040404048401!204040404240]
[6!6080204026803!206060606060]
[606060606260648268286424]
[828482686284<8!83!3>00000000000]
00000000
<83>0000000
;
